Самые активные релизы за неделю
Нет релизов к показу

:: Детали раздачи
Раздача является мультитрекерной — учтите, количество раздающих не будет совпадать с количеством участников на сайте (скачивание на клиентской стороне зависит от настроек µTorrent клиент программы, настройки -> Включить DHT, Обмен пирами и Поиск лок-х пиров).
Если висит надпись, пиры по нулям - не бойтесь, возможность скачать повторно раздачу - есть. Попробуйте, в случае отказа - прокоментируйте или нажмите на "Позвать скачавших".

Sylver - Discography [2001-2006 / FLAC / 900 (VBR)] [Trance]

Скачать Скачать .torrent файл (основная ссылка для скачивания файла)
Смотреть / Слушать онлайн просмотр (ссылка для просмотра файла через плагин 'Torrent Stream')
Magnet-ссылка (альтернативная ссылка для скачивания файла)
Теги / Метки trance, 2001
Описание
Sylver - Discography [2001-2006 / FLAC / 900 (VBR)] [Trance]

Артист: Sylver
Название: Discography
Жанр: Trance
Год выхода: 2001-2006
О музыке:

Artist: Sylver
Genre: Trance, Electronic, Dance
Country: Belgium
Duration: 04:56:19


Sylver


2001 - Chances

2001 - Chances 2CDSE

2003 - Little Things

2004 - Nighttime Calls

2006 - Crossroads




Log Exact Audio Copy
Exact Audio Copy V0.99 prebeta 5 from 4. May 2009

EAC extraction logfile from 9. Mar 2010, 7:46

Sylver / Chances

Used drive: ASUSDRW-2014L1Adapter: 0ID: 1

Read mode: Secure
Utilize accurate stream : Yes
Defeat audio cache: Yes
Make use of C2 pointers : No

Read offset correction: 6
Overread into Lead-In and Lead-Out: No
Fill up missing offset samples with silence : Yes
Delete leading and trailing silent blocks: No
Null samples used in CRC calculations: Yes
Used interface: Native Win32 interface for Win NT 2000

Used output format: User Defined Encoder
Selected bitrate: 1024 kBit/s
Quality: High
Add ID3 tag: No
Command line compressor: C:\Program Files\Exact Audio Copy\FLAC\FLAC.EXE
Additional command line options : -8 -V %s


TOC of the extracted CD

Track |Start|Length| Start sector | End sector
---------------------------------------------------------------------
1|0:00.00 |4:05.64|0|18438
2|4:05.64 |4:06.74|18439|36962
3|8:12.63 |3:24.48|36963|52310
4| 11:37.36 |4:20.07|52311|71817
5| 15:57.43 |3:33.34|71818|87826
6| 19:31.02 |4:46.59|87827|109335
7| 24:17.61 |4:08.43|109336|127978
8| 28:26.29 |3:27.43|127979|143546
9| 31:53.72 |4:02.19|143547|161715
10| 35:56.16 |4:26.31|161716|181696
11| 40:22.47 |7:35.14|181697|215835
12| 47:57.61 |8:25.25|215836|253735


Range status and errors

Selected range

Filename C:\Sylver\2001 - Chances.wav

Peak level 89.1 %
Range quality 100.0 %
Test CRC DC3871CE
Copy CRC DC3871CE
Copy OK

No errors occurred


AccurateRip summary

Track1accurately ripped (confidence 1)[44A6B49C]
Track2accurately ripped (confidence 1)[BF87424F]
Track3accurately ripped (confidence 1)[D3C740B5]
Track4accurately ripped (confidence 1)[46570368]
Track5accurately ripped (confidence 1)[8C58D92B]
Track6accurately ripped (confidence 1)[56BA9C11]
Track7accurately ripped (confidence 1)[B432E1CB]
Track8accurately ripped (confidence 1)[05EA6016]
Track9accurately ripped (confidence 1)[8D6C34AE]
Track 10accurately ripped (confidence 1)[142272F8]
Track 11accurately ripped (confidence 1)[9614F61B]
Track 12accurately ripped (confidence 1)[03BE5AA6]

All tracks accurately ripped

End of status report
2001 - Chances CD1SE

2001 - Chances CD2SE

2003 - Little Things

2004 - Nighttime Calls

2006 - Crossroads



Формат: FLAC
Битрэйт: 900
vbr: Да
Связанные раздачи
Загрузка / Обновление
Категория Музыка / Мультимедиа RSS лента
Добавлен (9 лет, 3 месяца назад)
Просмотров 937 раз (a)
Взят 98 раз (a)
Файлы 52, 2.13 GB (2 289 488 881 байт)
Раздал ViKa  (Искать торренты)
Участники
Скачивают (качают): 0 (1), Завершено: 45 (0)
Просматривают

« Бумер [DVD 9] [2003] [Crime / Drama] -†- ¿? -†- VA - Romane Vol.1 [2001 / MP3 / 128] [Vocal] »

:: Список Комментариев
Нет комментариев.

 Нет комментариев

Счетчики
Яндекс.Метрика


Поделитесь в социальных сетях


Торрент клиент

Торрент клиент для macOS

Быстрый Поиск





Спасибо Вам
Мы благодарны этим людям в поддержке сайта:
Нет данных для показа
Попади и ты в этот блок, поставь оценку 5 и получи 300 MB к отдаче:
Войти на сайт сейчас.

Правообладателям
По всем вопросам сотрудничества, удаления авторских файлов "пачкой", просьба отписаться по адреcу:
[email protected]

Наши группы в VK, OK