Самые активные релизы за неделю
Нет релизов к показу

:: Детали раздачи
Раздача является мультитрекерной — учтите, количество раздающих не будет совпадать с количеством участников на сайте (скачивание на клиентской стороне зависит от настроек µTorrent клиент программы, настройки -> Включить DHT, Обмен пирами и Поиск лок-х пиров).
Если висит надпись, пиры по нулям - не бойтесь, возможность скачать повторно раздачу - есть. Попробуйте, в случае отказа - прокоментируйте или нажмите на "Позвать скачавших".

VA - Ministry of Sound: The Chillout Guide [2001 / FLAC / 1000 (VBR)] [Downtempo]

Скачать Скачать .torrent файл (основная ссылка для скачивания файла)
Смотреть / Слушать онлайн просмотр (ссылка для просмотра файла через плагин 'Torrent Stream')
Magnet-ссылка (альтернативная ссылка для скачивания файла)
Теги / Метки downtempo, 2001
Описание
VA - Ministry of Sound: The Chillout Guide [2001 / FLAC / 1000 (VBR)] [Downtempo]

Артист: VA
Название: Ministry of Sound: The Chillout Guide
Жанр: Downtempo
Год выхода: 2001
О музыке: Жанр: Chill-out, Downtempo
Год выпуска диска: 2001
Производитель диска: Ministry Of Sound, UK
Аудио кодек: FLAC
Тип рипа: tracks+.cue
Битрейт аудио: lossless
Продолжительность: 68:58+67:04

http://zamolxismd.org/m/funkyimg.com/u2/412/337/moscutout.png

[Disc one]
1. Fortunato Montresor - Imagine
2. Yonderboi - Papadam
3. I Monster - Daydream In Blue
4. Groove Armada - At the River
5. Chicane - Offshore (Album Mix)
6. Jakatta - American Dream (Afterlife Mix)
7. Zero 7 - Give It Away
8. Pepe Deluxe Leave (Radio Edit) - Before You Leave
9. Hairy Diamond - Givin Up
10. Brooke Russell - So Sweet (Rae Christian Remix)
11. Nightmares On Wax - Les Nuits
12. Trio Electrico - Return Of The Coconut Groove
13. Trby Trio - A Go Go (Boozoo Bajou Mix)
14. Boozoo Bajou - Night Over Manaus
15. Serge Gainsbourg - Je T'aime (Dzihan Kamien Remix)
16. Mo Horizons - Foto Viva
17. Ultra Nat - Twisted (4 Hero Mix)
18. Nils Petter Molvaer - Vilderness (Chilluminati Remix)
19. Beanfield - The Cезон (Video Edit)
20. Waldeck - This Isn't Maybe

[Disc two]
1. Seelenluft - Wasser-Kr 1
2. Paul Van Dyk - Vega
3. Chicane - No Ordinary Morning
4. Matthias Schaffhuser - Hey Little Girl
5. Moby - Natural Blues
6. Orion - Eternity (Acoustic Mix)
7. Afro Medusa - Pasilda (Afterlife Mix)
8. Wamdue Project - King Of My Castle (Original Radio Edit)
9. Alex Gopher - The Child
10. Nalin Kane - Beachball
11. Energy 52 - Caf Del Mar (Michael Woods Remix)
12. Underworld - Cups (Salt City Orchestra's Vertical Bacon Vocal)
13. Aural Float - At The Crossroads
14. The Beloved The Sunrising (Album Mix)
15. Schiller - Das Glockenspiel (Schill Out Mix)
16. The Aloof - One Night Stand (7" Edit)
17. Leftfield - Melt
18. Gregory Isaacs - Night Nurse (Kruder Dorfmeister Remix)
19. Dusted - Always Remember To Respect And Honour Your Mother
20. Fischerspooner - The 15th

Covers

LOG

EAC extraction logfile from 16. July 2008, 15:19 for CD
Various / The Chillout Guide CD1
Used drive : SONY DVD RW AW-G170A Adapter: 1 ID: 1
Read mode : Secure with NO C2, accurate stream, disable cache
Read offset correction : 48
Overread into Lead-In and Lead-Out : No
Used output format : C:Usersbigsimonwildebinflac.exe (User Defined Encoder)
192 kBit/s
Additional command line options : -V -5 -T "artist=%a" -T "title=%t" -T "album=%g" -T "date=%y" -T "tracknumber=%n" -T "genre=%m" %s
Other options :
Fill up missing offset samples with silence : Yes
Delete leading and trailing silent blocks : No
Installed external ASPI interface
Track 1
Filename C:EAC-RipsMinistry Of Sound - The Chillout Guide (2001) (FLAC-EAC-CUE)CD-11 - Fortunato Montresor - Imagine (Radio Edit).wav
Pre-gap length 0:00:02.00
Peak level 91.7 %
Track quality 100.0 %
Test CRC 17287790
Copy CRC 17287790
Copy OK
Track 2
Filename C:EAC-RipsMinistry Of Sound - The Chillout Guide (2001) (FLAC-EAC-CUE)CD-12 - Yonderboi - Papadam.wav
Peak level 91.7 %
Track quality 100.0 %
Test CRC 3212DC0A
Copy CRC 3212DC0A
Copy OK
Track 3
Filename C:EAC-RipsMinistry Of Sound - The Chillout Guide (2001) (FLAC-EAC-CUE)CD-13 - I Monster - Daydream In Blue.wav
Peak level 78.3 %
Track quality 100.0 %
Test CRC D2C640F9
Copy CRC D2C640F9
Copy OK
Track 4
Filename C:EAC-RipsMinistry Of Sound - The Chillout Guide (2001) (FLAC-EAC-CUE)CD-14 - Groove Armada - At The River (Radio Edit).wav
Peak level 89.8 %
Track quality 100.0 %
Test CRC C46E225C
Copy CRC C46E225C
Copy OK
Track 5
Filename C:EAC-RipsMinistry Of Sound - The Chillout Guide (2001) (FLAC-EAC-CUE)CD-15 - Chicane - Offshore (Original Album Mix).wav
Peak level 88.0 %
Track quality 100.0 %
Test CRC B6264935
Copy CRC B6264935
Copy OK
Track 6
Filename C:EAC-RipsMinistry Of Sound - The Chillout Guide (2001) (FLAC-EAC-CUE)CD-16 - Jakatta - American Dream (Afterlife Mix).wav
Peak level 87.1 %
Track quality 100.0 %
Test CRC 199903B1
Copy CRC 199903B1
Copy OK
Track 7
Filename C:EAC-RipsMinistry Of Sound - The Chillout Guide (2001) (FLAC-EAC-CUE)CD-17 - Zero 7 - Give It Away.wav
Peak level 89.4 %
Track quality 99.9 %
Test CRC C1276211
Copy CRC C1276211
Copy OK
Track 8
Filename C:EAC-RipsMinistry Of Sound - The Chillout Guide (2001) (FLAC-EAC-CUE)CD-18 - Pepe Deluxe - Before You Leave (Radio Edit).wav
Peak level 80.6 %
Track quality 100.0 %
Test CRC A4F47D29
Copy CRC A4F47D29
Copy OK
Track 9
Filename C:EAC-RipsMinistry Of Sound - The Chillout Guide (2001) (FLAC-EAC-CUE)CD-19 - Hairy Diamond - Givin Up (Radio Edit).wav
Peak level 85.1 %
Track quality 99.9 %
Test CRC F449DBD2
Copy CRC F449DBD2
Copy OK
Track 10
Filename C:EAC-RipsMinistry Of Sound - The Chillout Guide (2001) (FLAC-EAC-CUE)CD-110 - Brooke Russell - So Sweet (Rae Christian Remix).wav
Peak level 89.6 %
Track quality 100.0 %
Test CRC FF2E85DA
Copy CRC FF2E85DA
Copy OK
Track 11
Filename C:EAC-RipsMinistry Of Sound - The Chillout Guide (2001) (FLAC-EAC-CUE)CD-111 - Nightmares On Wax - Les Nuits.wav
Peak level 91.5 %
Track quality 100.0 %
Test CRC DCAF2C6D
Copy CRC DCAF2C6D
Copy OK
Track 12
Filename C:EAC-RipsMinistry Of Sound - The Chillout Guide (2001) (FLAC-EAC-CUE)CD-112 - Trio Electrico - Return Of The Coconut Groove (Raw Deal Mix).wav
Peak level 91.7 %
Track quality 100.0 %
Test CRC 7E01E144
Copy CRC 7E01E144
Copy OK
Track 13
Filename C:EAC-RipsMinistry Of Sound - The Chillout Guide (2001) (FLAC-EAC-CUE)CD-113 - Trьby Trio - A Go Go (Boozoo Bajou Mix).wav
Peak level 91.6 %
Track quality 100.0 %
Test CRC F0F49E67
Copy CRC F0F49E67
Copy OK
Track 14
Filename C:EAC-RipsMinistry Of Sound - The Chillout Guide (2001) (FLAC-EAC-CUE)CD-114 - Boozoo Bajou - Night Over Manaus.wav
Peak level 91.7 %
Track quality 100.0 %
Test CRC D08240E8
Copy CRC D08240E8
Copy OK
Track 15
Filename C:EAC-RipsMinistry Of Sound - The Chillout Guide (2001) (FLAC-EAC-CUE)CD-115 - Serge Gainsbourg - Je T'aime (Dzihan Kamien Remix).wav
Peak level 91.7 %
Track quality 100.0 %
Test CRC 9E052619
Copy CRC 9E052619
Copy OK
Track 16
Filename C:EAC-RipsMinistry Of Sound - The Chillout Guide (2001) (FLAC-EAC-CUE)CD-116 - Mo Horizons - Foto Viva (Radio Edit).wav
Peak level 91.7 %
Track quality 100.0 %
Test CRC DE81859C
Copy CRC DE81859C
Copy OK
Track 17
Filename C:EAC-RipsMinistry Of Sound - The Chillout Guide (2001) (FLAC-EAC-CUE)CD-117 - Ultra Natй - Twisted (4 Hero Mix).wav
Peak level 91.7 %
Track quality 99.9 %
Test CRC 3DCBA05B
Copy CRC 0586AF25
Copy OK
Track 18
Filename C:EAC-RipsMinistry Of Sound - The Chillout Guide (2001) (FLAC-EAC-CUE)CD-118 - Nils Petter Molvaer - Vilderness (Chilluminati Remix).wav
Peak level 88.8 %
Track quality 97.1 %
Test CRC 986DCA7F
Copy CRC 7C26C6B7
Copy OK
Track 19
Filename C:EAC-RipsMinistry Of Sound - The Chillout Guide (2001) (FLAC-EAC-CUE)CD-119 - Beanfield - The Cезон (Video Edit).wav
Peak level 100.0 %
Track quality 100.0 %
Test CRC 7278C9DC
Copy CRC 7278C9DC
Copy OK
Track 20
Filename C:EAC-RipsMinistry Of Sound - The Chillout Guide (2001) (FLAC-EAC-CUE)CD-120 - Waldeck - This Isn't Maybe (Radio Edit).wav
Peak level 89.9 %
Track quality 100.0 %
Test CRC AC86B790
Copy CRC AC86B790
Copy OK
No errors occured
End of status report
CD2
http://zamolxismd.org/m/img441.imageshack.us/img441/2360/190ac.jpg
Формат: FLAC
Битрэйт: 1000
vbr: Да
Связанные раздачи
Загрузка / Обновление
Категория Музыка / Мультимедиа RSS лента
Добавлен (8 лет, 8 месяцев назад)
Просмотров 157 раз (a)
Взят 17 раз (a)
Файлы 48, 937.90 MB (983 463 197 байт)
Раздал ViKa  (Искать торренты)
Участники
Скачивают (качают): 0 (1), Завершено: 1 (0)
Просматривают

« Bruno Mars Feat. Damian Marley - Liquor Store Blues [DVD] [2011] -†- ¿? -†- Шафл! [AniMedia] / Shuffle! [Episode 1-5] [2005 / BDRip] [TV Anime] »

:: Список Комментариев
Нет комментариев.

 Нет комментариев

Счетчики
Яндекс.Метрика


Поделитесь в социальных сетях


Торрент клиент

Торрент клиент для macOS

Быстрый Поиск





Спасибо Вам
Мы благодарны этим людям в поддержке сайта:
Нет данных для показа
Попади и ты в этот блок, поставь оценку 5 и получи 300 MB к отдаче:
Войти на сайт сейчас.

Правообладателям
По всем вопросам сотрудничества, удаления авторских файлов "пачкой", просьба отписаться по адреcу:
[email protected]

Наши группы в VK, OK