Самые активные релизы за неделю
Нет релизов к показу

:: Детали раздачи
Раздача является мультитрекерной — учтите, количество раздающих не будет совпадать с количеством участников на сайте (скачивание на клиентской стороне зависит от настроек µTorrent клиент программы, настройки -> Включить DHT, Обмен пирами и Поиск лок-х пиров).
Если висит надпись, пиры по нулям - не бойтесь, возможность скачать повторно раздачу - есть. Попробуйте, в случае отказа - прокоментируйте или нажмите на "Позвать скачавших".

VA - Bowers Wilkins With Real World Records [2007 / FLAC / 800 (VBR)] [Folk]

Скачать Скачать .torrent файл (основная ссылка для скачивания файла)
Смотреть / Слушать онлайн просмотр (ссылка для просмотра файла через плагин 'Torrent Stream')
Magnet-ссылка (альтернативная ссылка для скачивания файла)
Теги / Метки folk, 2007
Описание
VA - Bowers   Wilkins With Real World Records [2007 / FLAC / 800 (VBR)] [Folk]
Артист : VA
Название : Bowers Wilkins With Real World Records
Жанр : Folk
Год выхода : 2007

О музыке :


Artist: VA
Album: Bowers Wilkins With Real World Records
Released: 2007
Genre: Folk, World, Country, Jazz, Reggae, Rock
Label: Real World Records
Catalog#: RWBW001
Country: Europe
Duration: 00:57:24



[/url]



http://img543.imageshack.us/img543/8962/tracklista.png



1. Afro Celt Sound System - Mother (6:27)
2. Daby Tour© - Mi Wawa (3:24)
3. The Blind Boys of Alabama - Old Blind Barnabus (3:27)
4. Little Axe - Will I Ever Get Back Home Again? (4:16)
5. Charlie Musselwhite - Church Is Out (3:27)
6. Nusrat Fateh Ali Khan Michael Brook - My Comfort Remains (6:25)
7. Assorted Artists - Chinese Canon (4:45)
8. Joseph Arthur - Redemption?™s Son (4:34)
9. Pina - Burning (4:14)
10. Iarla “ Lionird - An Buachaill­n Ban (5:15)
11. Peter Gabriel - Quiet Steam (6:22)
12. Joi - Forget Me Not (5:50)
13. Sizer Barker - Day By Day (3:57)
14. Guo Yue - Dragonfly (3:34)


Log Exact Audio CopyExact Audio Copy V0.99 prebeta 3 from 28. July 2007


EAC extraction logfile from 30. October 2008, 14:15


Various / Bowers Wilkins With Real World Records


Used drive: Optiarc DVD RW AD-7173A Adapter: 4ID: 0


Read mode : Secure
Utilize accurate stream : Yes
Defeat audio cache: Yes
Make use of C2 pointers : No


Read offset correction: 48
Overread into Lead-In and Lead-Out: No
Fill up missing offset samples with silence : Yes
Delete leading and trailing silent blocks : No
Null samples used in CRC calculations : Yes
Used interface: Native Win32 interface for Win NT 2000
Gap handling: Appended to previous track


Used output format: User Defined Encoder
Selected bitrate: 192 kBit/s
Quality : High
Add ID3 tag : No
Command line compressor : C:Program FilesExact Audio CopyEncodersflac.exe
Additional command line options : -8 -T "artist=%a" -T "title=%t" -T "album=%g" -T "date=%y" -T "tracknumber=%n" -T "genre=%m" %s


TOC of the extracted CD


Track | Start|Length| Start sector | End sector
---------------------------------------------------------
1|0:00.00 |6:27.63 | 0|29087
2|6:27.63 |3:24.03 | 29088|44390
3|9:51.66 |3:27.24 | 44391|59939
4| 13:19.15 |4:16.68 | 59940|79207
5| 17:36.08 |3:27.21 | 79208|94753
6| 21:03.29 |6:25.65 | 94754| 123693
7| 27:29.19 |4:45.07 |123694| 145075
8| 32:14.26 |4:34.37 |145076| 165662
9| 36:48.63 |4:14.05 |165663| 184717
10| 41:02.68 |5:15.50 |184718| 208392
11| 46:18.43 |6:22.68 |208393| 237110
12| 52:41.36 |5:50.00 |237111| 263360
13| 58:31.36 |3:57.68 |263361| 281203
14| 62:29.29 |3:34.56 |281204| 297309


Track1


Filename D:MusicWaiting for tagging and approvalVarious - Bowers Wilkins With Real World Records1 - Afro Celt Sound System - Mother - Afro Celt Sound System - Mother.wav


Pre-gap length0:00:02.00


Peak level 98.9 %
Track quality 99.9 %
Test CRC 1CB500A0
Copy CRC 1CB500A0
Accurately ripped (confidence 3)[91DAAA97]
Copy OK


Track2


Filename D:MusicWaiting for tagging and approvalVarious - Bowers Wilkins With Real World Records2 - Daby Tourй - Mi Wawa - Daby Tourй - Mi Wawa.wav


Peak level 98.8 %
Track quality 100.0 %
Test CRC 439E311C
Copy CRC 439E311C
Accurately ripped (confidence 3)[587B9C50]
Copy OK


Track3


Filename D:MusicWaiting for tagging and approvalVarious - Bowers Wilkins With Real World Records3 - The Blind Boys of Alabama - Old Blind Barnabas - The Blind Boys of Alabama - Old Blind Barnabas.wav


Peak level 95.5 %
Track quality 100.0 %
Test CRC CB6DBEBA
Copy CRC CB6DBEBA
Accurately ripped (confidence 3)[0244B203]
Copy OK


Track4


Filename D:MusicWaiting for tagging and approvalVarious - Bowers Wilkins With Real World Records4 - Little Axe - Will I Ever Get Back Home Again- Little Axe - Will I Ever Get Back Home Again .wav


Peak level 88.8 %
Track quality 100.0 %
Test CRC DF9CE643
Copy CRC DF9CE643
Accurately ripped (confidence 3)[4B386E40]
Copy OK


Track5


Filename D:MusicWaiting for tagging and approvalVarious - Bowers Wilkins With Real World Records5 - Charlie Musselwhite - Church Is Out - Charlie Musselwhite - Church Is Out.wav


Peak level 98.8 %
Track quality 100.0 %
Test CRC 746E84C9
Copy CRC 746E84C9
Accurately ripped (confidence 3)[E4241481]
Copy OK


Track6


Filename D:MusicWaiting for tagging and approvalVarious - Bowers Wilkins With Real World Records6 - Nusrat Fateh Ali Khan Michael Brook - My Comfort Remains - Nusrat Fateh Ali Khan Michael Brook - My Comfort Remains.wav


Peak level 100.0 %
Track quality 99.9 %
Test CRC FACE3391
Copy CRC FACE3391
Accurately ripped (confidence 3)[42A00C39]
Copy OK


Track7


Filename D:MusicWaiting for tagging and approvalVarious - Bowers Wilkins With Real World Records7 - Various Artists - Chinese Canon - Various Artists - Chinese Canon.wav


Peak level 99.6 %
Track quality 100.0 %
Test CRC 1A758C8C
Copy CRC 1A758C8C
Accurately ripped (confidence 3)[B325E9FC]
Copy OK


Track8


Filename D:MusicWaiting for tagging and approvalVarious - Bowers Wilkins With Real World Records8 - Joseph Arthur - Redemption's Son - Joseph Arthur - Redemption's Son.wav


Peak level 92.9 %
Track quality 100.0 %
Test CRC FA1B3F28
Copy CRC FA1B3F28
Accurately ripped (confidence 3)[A666E7C9]
Copy OK


Track9


Filename D:MusicWaiting for tagging and approvalVarious - Bowers Wilkins With Real World Records9 - Pina - Burning - Pina - Burning.wav


Peak level 81.4 %
Track quality 100.0 %
Test CRC 739081D7
Copy CRC 739081D7
Accurately ripped (confidence 3)[FD5DFAC8]
Copy OK


Track 10


Filename D:MusicWaiting for tagging and approvalVarious - Bowers Wilkins With Real World Records10 - Iarla У Lionбird - An Buachaillнn Ban - Iarla У Lionбird - An Buachaillнn Ban.wav


Peak level 100.0 %
Track quality 100.0 %
Test CRC 9C1303ED
Copy CRC 9C1303ED
Accurately ripped (confidence 3)[0C86D5A8]
Copy OK


Track 11


Filename D:MusicWaiting for tagging and approvalVarious - Bowers Wilkins With Real World Records11 - Peter Gabriel - Quiet Steam - Peter Gabriel - Quiet Steam.wav


Peak level 100.0 %
Track quality 100.0 %
Test CRC FB7C20F7
Copy CRC FB7C20F7
Accurately ripped (confidence 4)[F2960FEB]
Copy OK


Track 12


Filename D:MusicWaiting for tagging and approvalVarious - Bowers Wilkins With Real World Records12 - Joi - Forget Me Not - Joi - Forget Me Not.wav


Pre-gap length0:00:00.36


Peak level 78.5 %
Track quality 99.9 %
Test CRC 4B4EE029
Copy CRC 4B4EE029
Accurately ripped (confidence 3)[F7688602]
Copy OK


Track 13


Filename D:MusicWaiting for tagging and approvalVarious - Bowers Wilkins With Real World Records13 - Sizer Barker - Day By Day - Sizer Barker - Day By Day.wav


Peak level 98.8 %
Track quality 100.0 %
Test CRC F3AB1E82
Copy CRC F3AB1E82
Accurately ripped (confidence 3)[940175E4]
Copy OK


Track 14


Filename D:MusicWaiting for tagging and approvalVarious - Bowers Wilkins With Real World Records14 - Guo Yue - Dragonfly - Guo Yue - Dragonfly.wav


Pre-gap length0:00:00.56


Peak level 99.6 %
Track quality 100.0 %
Test CRC 1321C6F5
Copy CRC 1321C6F5
Accurately ripped (confidence 3)[5C526E62]
Copy OK


All tracks accurately ripped


No errors occurred


End of status report


http://img35.imageshack.us/img35/3435/bossumdmst.png


Формат : FLAC
Битрэйт : 800
vbr : Да
Связанные раздачи
Загрузка / Обновление
Категория Музыка / Мультимедиа RSS лента
Добавлен (8 лет, 8 месяцев назад)
Просмотров 360 раз (a)
Взят 28 раз (a)
Файлы 17, 386.52 MB (405 294 040 байт)
Раздал ViKa  (Искать торренты)
Участники
Скачивают (качают): 0 (1), Завершено: 63 (0)
Просматривают

« AVS DVD Copy 4.1.2.283 [RePack] [Shareware] -†- ¿? -†- Dinu Pancov - Tech Sounds #3 [2011 / MP3 / 192] [House] »

:: Список Комментариев
Нет комментариев.

 Нет комментариев

Счетчики
Яндекс.Метрика


Поделитесь в социальных сетях


Торрент клиент

Торрент клиент для macOS

Быстрый Поиск





Спасибо Вам
Мы благодарны этим людям в поддержке сайта:
Нет данных для показа
Попади и ты в этот блок, поставь оценку 5 и получи 300 MB к отдаче:
Войти на сайт сейчас.

Правообладателям
По всем вопросам сотрудничества, удаления авторских файлов "пачкой", просьба отписаться по адреcу:
[email protected]

Наши группы в VK, OK