Самые активные релизы за неделю
Нет релизов к показу


Популярные персоны кино из торрент-раздачи

:: Детали раздачи
Раздача является мультитрекерной — учтите, количество раздающих не будет совпадать с количеством участников на сайте (скачивание на клиентской стороне зависит от настроек µTorrent клиент программы, настройки -> Включить DHT, Обмен пирами и Поиск лок-х пиров).
Если висит надпись, пиры по нулям - не бойтесь, возможность скачать повторно раздачу - есть. Попробуйте, в случае отказа - прокоментируйте или нажмите на "Позвать скачавших".
Данная раздача является свободной — учитывается только количество отданного, количество скачанного не фиксируется.

Генуя / Genova [2008 / BDRemux] [Drama / Romance] Золотой торрент

Скачать Скачать .torrent файл (основная ссылка для скачивания файла)
Смотреть / Слушать онлайн просмотр (ссылка для просмотра файла через плагин 'Torrent Stream')
Magnet-ссылка (альтернативная ссылка для скачивания файла)
Теги / Метки drama, romance, 2008
Описание
Генуя  / Genova [2008 / BDRemux] [Drama / Romance]

Оригинальное название: Genova
Название: Генуя
Trailer:
Трейлер

Год выхода: 2008
Страна: Великобритания
Жанр: Drama / Romance
Режиссер: Майкл Уинтерботтом
Автор сценариев: Laurence Coriat (screenplay), Michael Winterbottom (screenplay)
В ролях: Колин Фёрт, Перла Хэйни-Джардин, Уилла Холлэнд, Андреа Аскуароне, Стефано Барабино, Ливио Басу, Моника Беннати, Риккардо Кауда, Данте Кьяри, Федерико Чигарини
Продолжительность: 01:33:27
Язык: Русский
Перевод: Профессиональный (многоголосый, закадровый)
О фильме: Удивительная история в лучших традициях мистической готики от режиссера «9 песен». Колин Ферт в роли американца, который переезжает с двумя дочками в Геную, чтобы начать жизнь с нуля. Семья хочет в корне изменить жизнь после внезапной смерти матери. Келли открывает для себя неизвестный ей мир сексуальности, тогда как Мари начинает видеть призрак своей матери, разгуливающий по улицам…
Скриншоты

[spoiler=MI]
Format: MPEG-TS
File size: 20.6 GiB
Duration: 1h 33mn
Overall bit rate: 31.5 Mbps
Maximum Overall bit rate: 35.5 Mbps

Video
ID: 4113 (0x1011)
Menu ID: 1 (0x1)
Format: AVC
Format/Info: Advanced Video Codec
Format profile: [email protected]
Format settings, CABAC: Yes
Format settings, ReFrames: 4 frames
Codec ID: 27
Duration: 1h 33mn
Bit rate mode: Variable
Bit rate: 27.8 Mbps
Maximum bit rate: 37.0 Mbps
Width: 1 920 pixels
Height: 1 080 pixels
Display aspect ratio: 16:9
Frame rate: 24.000 fps
Standard: NTSC
Color space: YUV
Chroma subsampling: 4:2:0
Bit depth: 8 bits
Scan type: Progressive
Bits/(Pixel*Frame): 0.558
Stream size: 18.1 GiB (88%)
Color primaries: BT.709-5, BT.1361, IEC 61966-2-4, SMPTE RP177
Transfer characteristics: BT.709-5, BT.1361
Matrix coefficients: BT.709-5, BT.1361, IEC 61966-2-4 709, SMPTE RP177

Audio #1
ID: 4352 (0x1100)
Menu ID: 1 (0x1)
Format: DTS
Format/Info: Digital Theater Systems
Format profile: MA / Core
Muxing mode: Stream extension
Codec ID: 134
Duration: 1h 33mn
Bit rate mode: Variable
Bit rate: 1 711 Kbps / 1 510 Kbps
Channel(s): 6 channels
Channel positions: Front: L C R, Side: L R, LFE
Sampling rate: 48.0 KHz
Bit depth: 16 bits
Compression mode: Lossless / Lossy
Language: English

Audio #2
ID: 4353 (0x1101)
Menu ID: 1 (0x1)
Format: AC-3
Format/Info: Audio Coding 3
Mode extension: CM (complete main)
Codec ID: 129
Duration: 1h 33mn
Bit rate mode: Constant
Bit rate: 448 Kbps
Channel(s): 6 channels
Channel positions: Front: L C R, Side: L R, LFE
Sampling rate: 48.0 KHz
Bit depth: 16 bits
Compression mode: Lossy
Stream size: 299 MiB (1%)
Language: Russian

Файл
Качество HDTV: BDRemux
Видео: MPEG-4 AVC, 27.8 Мбит/с, 1920x1080 at 23.976 fps
Звук: Русский (AC3, 6 ch, 448 Кбит/с) / Английский (DTS, 6 ch, 1510 Кбит/с)
Скриншоты Генуя  / Genova [2008 / BDRemux] [Drama / Romance] #0Генуя  / Genova [2008 / BDRemux] [Drama / Romance] #1Генуя  / Genova [2008 / BDRemux] [Drama / Romance] #2Генуя  / Genova [2008 / BDRemux] [Drama / Romance] #3
Связанные раздачи
Загрузка / Обновление
Категория Фильмы / HD / Full HD / Blu-Ray / 2K / 4K RSS лента
Добавлен (8 лет, 1 месяц назад)
Просмотров 121 раз (a)
Взят 2 раз (a)
Файлы 1, 20.56 GB (22 080 463 136 байт)
Оценка
IMDB: 7.1, 99,644 голоса (ов)
Раздал ViKa  (Искать торренты)
Участники
Скачивают (качают): 0 (1), Завершено: 0 (0)
Просматривают

« Club FAMOUS - mixed by dj Novikov 17/04/2009 [2009/MP3/320] [House] -†- ¿? -†- Иллюзия убийства / Dark Reel [mkv] [2008 / DVDRip] [Thriller / Horror] »

:: Список Комментариев
Нет комментариев.

 Нет комментариев

Счетчики
Яндекс.Метрика


Поделитесь в социальных сетях


Торрент клиент

Торрент клиент для macOS

Быстрый Поиск





Спасибо Вам
Мы благодарны этим людям в поддержке сайта:
Нет данных для показа
Попади и ты в этот блок, поставь оценку 5 и получи 300 MB к отдаче:
Войти на сайт сейчас.

Правообладателям
По всем вопросам сотрудничества, удаления авторских файлов "пачкой", просьба отписаться по адреcу:
[email protected]

Наши группы в VK, OK