Самые активные релизы за неделю
Нет релизов к показу

:: Детали раздачи
Раздача является мультитрекерной — учтите, количество раздающих не будет совпадать с количеством участников на сайте (скачивание на клиентской стороне зависит от настроек µTorrent клиент программы, настройки -> Включить DHT, Обмен пирами и Поиск лок-х пиров).
Если висит надпись, пиры по нулям - не бойтесь, возможность скачать повторно раздачу - есть. Попробуйте, в случае отказа - прокоментируйте или нажмите на "Позвать скачавших".

Kings Of Leon - Pyro (Clean) [2010]

Скачать Скачать .torrent файл (основная ссылка для скачивания файла)
Смотреть / Слушать онлайн просмотр (ссылка для просмотра файла через плагин 'Torrent Stream')
Magnet-ссылка (альтернативная ссылка для скачивания файла)
Теги / Метки [Не выбрано, автопоиск неудачен, 1 месяц назад]
Описание
Kings Of Leon - Pyro (Clean) [2010]

Артист: Kings Of Leon
Название: Pyro (Clean)
Год выхода: 2010
Язык: English
О видео клипе: http://zamolxismd.org/m/www.mtv.com/news/photos/g/grammy09/red_carpet/30_kings_of_leon.jpg


Kings Of Leon - Pyro

Come Around Sundown is the fifth studio album by American rock band Kings of Leon, released in the Republic of Ireland, Australia and Germany on October 15, 2010, followed by releases in the UK on October 18 and North America on October 19. The official album covers and tracklist were revealed on 3 September. The lead single, "Radioactive", along with its accompanying music video, premiered on 8 September on the Kings' official website. The following day, it received its official radio premiere on Australian radio.

The album debuted at number one in Australia, Austria, Belgium (Flanders), Canada, Germany, Ireland, Switzerland and the United Kingdom. In the UK, the album sold 183,000 units in its first week as well as breaking the record for biggest first week digital album sales by selling over 49,000 album downloads.



Video


MediaInfoFormat: Matroska
File size: 41.1 MiB
Duration: 4mn 11s
Overall bit rate: 1 367 Kbps
Movie name: encoded by walker|wlk-videos.blogspot.com
Encoded date: UTC 2010-12-09 18:07:55
Writing application: mkvmerge v4.0.0 ('The Stars were mine') built on Jun6 2010 16:18:42
Writing library: libebml v1.0.0 + libmatroska v1.0.0

Video
ID: 1
Format: AVC
Format/Info: Advanced Video Codec
Format profile: [email protected]
Format settings, CABAC: Yes
Format settings, ReFrames: 4 frames
Muxing mode: Container [email protected]
Codec ID: V_MPEG4/ISO/AVC
Duration: 4mn 11s
Bit rate: 1 113 Kbps
Width: 960 pixels
Height: 480 pixels
Display aspect ratio: 2.000
Frame rate: 23.976 fps
Color space: YUV
Chroma subsampling: 4:2:0
Bit depth: 8 bits
Scan type: Progressive
Bits/(Pixel*Frame): 0.101
Stream size: 33.4 MiB (81%)
Writing library: x264 core 98 r1649 c54c47d
Encoding settings: cabac=1 / ref=3 / deblock=1:0:0 / analyse=0x3:0x113 / me=hex / subme=7 / psy=1 / psy_rd=1.00:0.00 / mixed_ref=1 / me_range=16 / chroma_me=1 / trellis=1 / 8x8dct=1 / cqm=0 / deadzone=21,11 / fast_pskip=1 / chroma_qp_offset=-2 / threads=1 / sliced_threads=0 / nr=0 / decimate=1 / interlaced=0 / constrained_intra=0 / bframes=3 / b_pyramid=2 / b_adapt=1 / b_bias=0 / direct=1 / weightb=1 / weightp=2 / keyint=250 / keyint_min=25 / scenecut=40 / intra_refresh=0 / rc_lookahead=40 / rc=crf / mbtree=1 / crf=18.0 / qcomp=0.60 / qpmin=10 / qpmax=51 / qpstep=4 / ip_ratio=1.40 / aq=1:1.00

Audio
ID: 2
Format: MPEG Audio
Format version: Version 1
Format profile: Layer 3
Mode: Joint stereo
Mode extension: MS Stereo
Codec ID: A_MPEG/L3
Codec ID/Hint: MP3
Duration: 4mn 10s
Bit rate mode: Variable
Bit rate: 227 Kbps
Minimum bit rate: 32.0 Kbps
Channel(s): 2 channels
Sampling rate: 44.1 KHz
Stream size: 6.78 MiB (17%)
Writing library: LAME3.98r
Encoding settings: -m j -V 0 -q 0 -lowpass 19.5 --vbr-new -b 32
Screenshot'uri




Релиз группы: http://zamolxismd.org/m/funkyimg.com/u2/388/616/MRG-minibanner.gif






http://zamolxismd.org/m/funkyimg.com/u2/323/704/sashooa.png








© sashooa 2010
Видео: AVC, 960x480 (2.000), 23.976 fps, 1 113 Kbps (0.101 bit/pixel)
Звук: MP3, 44.1 KHz, 2 ch, 227 Kbps, VBR
Связанные раздачи
Загрузка / Обновление
Категория Клипы / Ролики / Приколы RSS лента
Добавлен (8 лет, 1 месяц назад)
Просмотров 100 раз (a)
Взят 1 раз (a)
Файлы 1, 41.06 MB (43 052 115 байт)
Раздал ViKa  (Искать торренты)
Участники
Скачивают (качают): 0 (1), Завершено: 0 (0)
Просматривают

« Обнаженные тела / Body Shots [1999 / DVDRip] [Drama] -†- ¿? -†- Wolfgang Gartner - Menage a Trois [2011 / MP3 / 320] [House] »

:: Список Комментариев
Нет комментариев.

 Нет комментариев

Счетчики
Яндекс.Метрика


Поделитесь в социальных сетях


Торрент клиент

Торрент клиент для macOS

Быстрый Поиск





Спасибо Вам
Мы благодарны этим людям в поддержке сайта:
Нет данных для показа
Попади и ты в этот блок, поставь оценку 5 и получи 300 MB к отдаче:
Войти на сайт сейчас.

Правообладателям
По всем вопросам сотрудничества, удаления авторских файлов "пачкой", просьба отписаться по адреcу:
[email protected]

Наши группы в VK, OK