Самые активные релизы за неделю
Нет релизов к показу

:: Детали раздачи
Раздача является мультитрекерной — учтите, количество раздающих не будет совпадать с количеством участников на сайте (скачивание на клиентской стороне зависит от настроек µTorrent клиент программы, настройки -> Включить DHT, Обмен пирами и Поиск лок-х пиров).
Если висит надпись, пиры по нулям - не бойтесь, возможность скачать повторно раздачу - есть. Попробуйте, в случае отказа - прокоментируйте или нажмите на "Позвать скачавших".

Schenker Barden Acoustic Project - Gipsy Lady

Скачать Скачать .torrent файл (основная ссылка для скачивания файла)
Смотреть / Слушать онлайн просмотр (ссылка для просмотра файла через плагин 'Torrent Stream')
Magnet-ссылка (альтернативная ссылка для скачивания файла)
Теги / Метки rock, 2009
Описание
Schenker Barden Acoustic Project  - Gipsy Lady
Артист: Schenker Barden Acoustic Project
Название: Gipsy Lady
Жанр: Rock
Год выхода: 2009
О музыке: "GIPSY LADY" - альбом, над которым хорошо потрудились легендарный немецкий гитарреро Michael Schenker и человек, который долгое время работал в MSG, вокалист Gary Barden. Цыганская Леди - абсолютно акустический альбом, который демонстрирует другую сторону Майкла Шенкера и Гари Бардена при работе с оригинальным материалом. Этот альбом - обращение за пределы рок области, поскольку он охватывает различные культурные поджанры.

Любителям красивых акустических рок-баллад.Приятного прослушивания!

YouTube - EL GRANDE

Год: 2009
Жанр: Acoustic rock

Кодек: FLAC
Битрейт: Lossless
Тип битрейта: CBR

http://zamolxismd.org/m/i062.radikal.ru/1201/a1/ba8a57739fb9.png

01. Lost
02. Dance Lady Gipsy
03. All Of My Life
04. Fight For Freedom
05. El Grande
06. Starting Over
07. Cant Live On Love Alone
08. Another Melody
09. Travelled So far
10. Hungry
11. Night Of The Stone
12. The Journey
-----------------------------------
Продолжительность: 00:47:54

Дополнительно
Exact Audio Copy V0.99 prebeta 5 from 4. May 2009

Отчёт EAC об извлечении, выполненном 13. августа 2010, 11:08

Schenker\Barden Acoustic Project / Gipsy Lady

Дисковод: PIONEER DVD-RW DVR-112D Adapter: 2 ID: 1

Режим чтения : Достоверность
Использование точного потока : Да
Отключение кэша аудио : Да
Использование указателей C2 : Нет

Комбинированное смещение чтения/записи : 0
Способность читать области Lead-in и Lead-out : Нет
Заполнение пропущенных сэмплов тишиной : Да
Удаление блоков с тишиной в начале и конце : Да
При вычислениях CRC использовались нулевые сэмплы : Нет
Интерфейс : Встроенный Win32-интерфейс для Win NT/2000
Обработка зазоров : Не обнаружено, добавлено к предыдущему треку

Выходной формат : Пользовательский кодировщик
Выбранный битрейт : 768 kBit/s
Качество : Высокий
Добавление ID3-тэга : Да
Утилита сжатия : C:\Program Files\Exact Audio Copy\FLAC\FLAC.EXE
Дополнительные параметры : -6 -V -T "ARTIST=%a" -T "TITLE=%t" -T "ALBUM=%g" -T "DATE=%y" -T "TRACKNUMBER=%n" -T "GENRE=%m" -T "COMMENT=%e" %s -o %d

TOC извлечённого CD

Трек | Старт | Длительность | Начальный сектор | Конечный сектор
---------------------------------------------------------------------
1 | 0:00.00 | 3:48.30 | 0 | 17129
2 | 3:48.30 | 4:00.16 | 17130 | 35145
3 | 7:48.46 | 4:07.21 | 35146 | 53691
4 | 11:55.67 | 3:40.74 | 53692 | 70265
5 | 15:36.66 | 3:27.40 | 70266 | 85830
6 | 19:04.31 | 3:16.39 | 85831 | 100569
7 | 22:20.70 | 4:01.05 | 100570 | 118649
8 | 26:22.00 | 3:31.27 | 118650 | 134501
9 | 29:53.27 | 3:47.62 | 134502 | 151588
10 | 33:41.14 | 4:38.63 | 151589 | 172501
11 | 38:20.02 | 4:47.50 | 172502 | 194076
12 | 43:07.52 | 3:55.03 | 194077 | 211704

Трек 1

Имя файла C:\Users\Vlad67\Music\Копии дисков(EAC)\01. Schenker-Barden Acoustic Project - Lost.wav

Пиковый уровень 100.0 %
Качество трека 100.0 %
CRC копии 88D77F5C
Копирование... OK

Трек 2

Имя файла C:\Users\Vlad67\Music\Копии дисков(EAC)\02. Schenker-Barden Acoustic Project - Dance Lady Gypsy.wav

Пиковый уровень 100.0 %
Качество трека 100.0 %
CRC копии D4B1BAC1
Копирование... OK

Трек 3

Имя файла C:\Users\Vlad67\Music\Копии дисков(EAC)\03. Schenker-Barden Acoustic Project - All Of My Life.wav

Пиковый уровень 100.0 %
Качество трека 100.0 %
CRC копии 1108CF33
Копирование... OK

Трек 4

Имя файла C:\Users\Vlad67\Music\Копии дисков(EAC)\04. Schenker-Barden Acoustic Project - Fight For Freedom.wav

Пиковый уровень 100.0 %
Качество трека 99.9 %
CRC копии 543AFCC5
Копирование... OK

Трек 5

Имя файла C:\Users\Vlad67\Music\Копии дисков(EAC)\05. Schenker-Barden Acoustic Project - El Grande.wav

Пиковый уровень 98.8 %
Качество трека 99.9 %
CRC копии BC0DA45A
Копирование... OK

Трек 6

Имя файла C:\Users\Vlad67\Music\Копии дисков(EAC)\06. Schenker-Barden Acoustic Project - Starting Over.wav

Пиковый уровень 98.8 %
Качество трека 100.0 %
CRC копии F564AC68
Копирование... OK

Трек 7

Имя файла C:\Users\Vlad67\Music\Копии дисков(EAC)\07. Schenker-Barden Acoustic Project - Cant Live On Love Alone.wav

Пиковый уровень 98.8 %
Качество трека 99.9 %
CRC копии B69C7AFB
Копирование... OK

Трек 8

Имя файла C:\Users\Vlad67\Music\Копии дисков(EAC)\08. Schenker-Barden Acoustic Project - Another Melody.wav

Пиковый уровень 98.8 %
Качество трека 100.0 %
CRC копии C5CF5607
Копирование... OK

Трек 9

Имя файла C:\Users\Vlad67\Music\Копии дисков(EAC)\09. Schenker-Barden Acoustic Project - Travelled So Far.wav

Пиковый уровень 98.8 %
Качество трека 99.9 %
CRC копии 9436DA81
Копирование... OK

Трек 10

Имя файла C:\Users\Vlad67\Music\Копии дисков(EAC)\10. Schenker-Barden Acoustic Project - Hungry.wav

Пиковый уровень 98.8 %
Качество трека 100.0 %
CRC копии 11944073
Копирование... OK

Трек 11

Имя файла C:\Users\Vlad67\Music\Копии дисков(EAC)\11. Schenker-Barden Acoustic Project - Night Of The Stare.wav

Пиковый уровень 98.8 %
Качество трека 100.0 %
CRC копии BC966A94
Копирование... OK

Трек 12

Имя файла C:\Users\Vlad67\Music\Копии дисков(EAC)\12. Schenker-Barden Acoustic Project - The Journey.wav

Пиковый уровень 98.8 %
Качество трека 100.0 %
CRC копии 80217DEF
Копирование... OK

Ошибок не произошло

Конец отчёта
Отчёт Audiochecker:






Формат: FLAC
Битрэйт: 1411
Связанные раздачи
Загрузка / Обновление
Категория Музыка / Мультимедиа RSS лента
Добавлен (7 лет, 4 месяца назад)
Просмотров 327 раз (a)
Взят 3 раз (a)
Файлы 16, 324.14 MB (339 883 787 байт)
Раздал ViKa  (Искать торренты)
Участники
Скачивают (качают): 0 (1), Завершено: 0 (0)
Просматривают

« VA - New Life @ TMD Trance Edition Vol. 31 -†- ¿? -†- Pete Tong feat. S.Y.F. - Dawn »

:: Список Комментариев
Нет комментариев.

 Нет комментариев

Счетчики
Яндекс.Метрика


Поделитесь в социальных сетях


Торрент клиент

Торрент клиент для macOS

Быстрый Поиск





Спасибо Вам
Мы благодарны этим людям в поддержке сайта:
Нет данных для показа
Попади и ты в этот блок, поставь оценку 5 и получи 300 MB к отдаче:
Войти на сайт сейчас.

Правообладателям
По всем вопросам сотрудничества, удаления авторских файлов "пачкой", просьба отписаться по адреcу:
[email protected]

Наши группы в VK, OK