Самые активные релизы за неделю
Нет релизов к показу

:: Детали раздачи

Astrud Gilberto - Non-Stop To Brazil (2006) FLAC

Скачать Magnet-ссылка (альтернативная ссылка для скачивания файла)
Теги / Метки vocal jazz, bossa nova, 2006
Описание
Astrud Gilberto - Non-Stop To Brazil (2006) FLAC



Название: Non-Stop To Brazil
Исполнитель: Astrud Gilberto
Год: 2006
Жанр: Vocal Jazz, Bossa Nova


Продолжительность: 00:46:03
Формат/Кодек: FLAC
Битрейт аудио: Lossless


Трек-лист
Exact Audio Copy V0.99 prebeta 5 from 4. May 2009

Отчёт EAC об извлечении, выполненном 12. октября 2011, 21:44

Astrud Gilberto / Non-Stop To Brazil (Verve Jazz Club)

Дисковод: ASUS SBC-06D1S-U Adapter: 2 ID: 0

Режим чтения : Достоверность
Использование точного потока : Да
Отключение кэша аудио : Да
Использование указателей C2 : Нет

Коррекция смещения при чтении : 102
Способность читать области Lead-in и Lead-out : Нет
Заполнение пропущенных сэмплов тишиной : Да
Удаление блоков с тишиной в начале и конце : Нет
При вычислениях CRC использовались нулевые сэмплы : Нет
Интерфейс : Встроенный Win32-интерфейс для Win NT/2000

Выходной формат : Пользовательский кодировщик
Выбранный битрейт : 768 kBit/s
Качество : Высокий
Добавление ID3-тэга : Нет
Утилита сжатия : C:Program Files (x86)Exact Audio CopyFlacflac.exe
Дополнительные параметры : -6 -V -T "ARTIST=%a" -T "TITLE=%t" -T "ALBUM=%g" -T "DATE=%y" -T "TRACKNUMBER=%n" -T "GENRE=%m" -T "COMMENT=%e" %s -o %d

TOC извлечённого CD

Трек | Старт | Длительность | Начальный сектор | Конечный сектор
---------------------------------------------------------------------
1 | 0:00.00 | 2:30.09 | 0 | 11258
2 | 2:30.09 | 1:51.29 | 11259 | 19612
3 | 4:21.38 | 2:27.23 | 19613 | 30660
4 | 6:48.61 | 3:40.23 | 30661 | 47183
5 | 10:29.09 | 2:42.72 | 47184 | 59405
6 | 13:12.06 | 3:28.46 | 59406 | 75051
7 | 16:40.52 | 2:20.47 | 75052 | 85598
8 | 19:01.24 | 3:22.10 | 85599 | 100758
9 | 22:23.34 | 2:01.46 | 100759 | 109879
10 | 24:25.05 | 2:54.08 | 109880 | 122937
11 | 27:19.13 | 1:35.27 | 122938 | 130089
12 | 28:54.40 | 2:21.35 | 130090 | 140699
13 | 31:16.00 | 3:18.29 | 140700 | 155578
14 | 34:34.29 | 2:42.41 | 155579 | 167769
15 | 37:16.70 | 1:37.33 | 167770 | 175077
16 | 38:54.28 | 2:27.55 | 175078 | 186157
17 | 41:22.08 | 2:21.69 | 186158 | 196801
18 | 43:44.02 | 2:18.73 | 196802 | 207224

Характеристики диапазона извлечения и сообщения об ошибках

Выбранный диапазон

Имя файла D:EACDataA.Gilberto - Non-Stop To BrazilA.Gilberto - Non-Stop To Brazil.wav

Пиковый уровень 99.9 %
Качество диапазона 100.0 %
CRC копии 9EBD02E1
Копирование... OK

Ошибок не произошло

AccurateRip: сводка

Трек 1 точное извлечение (доверие 26) [CCA59F47]
Трек 2 точное извлечение (доверие 26) [84ACBF16]
Трек 3 точное извлечение (доверие 26) [17C67D58]
Трек 4 точное извлечение (доверие 26) [F54DC7E6]
Трек 5 точное извлечение (доверие 26) [CDAAD02F]
Трек 6 точное извлечение (доверие 26) [FE945F9A]
Трек 7 точное извлечение (доверие 26) [99221831]
Трек 8 точное извлечение (доверие 26) [E2D26338]
Трек 9 точное извлечение (доверие 26) [4226E085]
Трек 10 точное извлечение (доверие 26) [1C2CBF48]
Трек 11 точное извлечение (доверие 26) [B948ACBC]
Трек 12 точное извлечение (доверие 26) [332F8276]
Трек 13 точное извлечение (доверие 26) [2D9C38EE]
Трек 14 точное извлечение (доверие 26) [801D17EF]
Трек 15 точное извлечение (доверие 26) [BA3F3567]
Трек 16 точное извлечение (доверие 26) [BB2002EB]
Трек 17 точное извлечение (доверие 26) [6CE514F3]
Трек 18 точное извлечение (доверие 26) [CC0024FF]

Все треки извлечены точно

Конец отчёта
Содержимое индексной карты:
Связанные раздачи
Загрузка / Обновление
Категория Музыка / Мультимедиа RSS лента
Добавлен (1 год, 6 месяцев назад)
Просмотров 49 раз (a)
Взят 2 раз (a)
Файлы 12, 262.10 MB (274 831 509 байт)
Раздал ViKa  (Искать торренты)
Участники
Раздают (отдают): 0 (2), Скачивают (качают): 0 (1), Завершено: 0 (0)
Просматривают

« Astrud Gilberto - Verve Jazz Masters 9 (1993) MP3 -†- ¿? -†- The Digital Blonde - The Witches (2017) MP3 »

:: Список Комментариев
Нет комментариев.

 Нет комментариев

Счетчики
Яндекс.Метрика


Поделитесь в социальных сетях


Торрент клиент

Торрент клиент для macOS

Быстрый Поиск





Спасибо Вам
Мы благодарны этим людям в поддержке сайта:
Нет данных для показа
Попади и ты в этот блок, поставь оценку 5 и получи 300 MB к отдаче:
Войти на сайт сейчас.

Правообладателям
По всем вопросам сотрудничества, удаления авторских файлов "пачкой", просьба отписаться по адреcу:
[email protected]

Наши группы в VK, OK